v2.0!

HotSpot2
Member
Joined: September 10th, 2002, 4:54 am

November 6th, 2005, 2:35 pm #1

Test.
[/tr]
"No remorse, no repent
We don't care what it meant
Another day, another death
Another sorrow, another breath"
"No remorse, no repent

We don't care what it meant

Another day, another death

Another sorrow, another breath"
Quote
Like
Share

Prime Z
Member
Joined: November 16th, 1999, 6:15 am

November 8th, 2005, 9:36 pm #2

Are those the same guys from the first picture?


Quote
Like
Share

The Darkhour
Member
Joined: November 11th, 2000, 11:27 pm

November 8th, 2005, 9:54 pm #3

It's the criminal line-up.
3rd guy from the left did it.
Quote
Like
Share

boylanhlung
Member
Joined: July 24th, 2010, 3:11 am

July 24th, 2010, 3:14 am #4

car ecu unit
chicago wedding limo


Trích dẫn:
As a string of mysterious killings grips Seattle, Bella, whose high school graduation is fast approaching, is forced to choose between her love for vampire Edward and her friendship with werewolf Jacob.
Trích dẫn:

Another Fine Release Brought to you from - IMAGiNE


************************************************** ************************************************** ****************
The Twilight Saga Eclipse DVD.Rip XViD - IMAGiNE
************************************************** ************************************************** ****************

Ripper ...........: DVDRip.IMAGiNE IMDB Rating.......:3.9/10
Video Codec.......: XViD Release Date......:02/07/10
Audio Codec.......:MP3 Theatre Date......:30/06/10
Audio Bitrate.....:128 Runtime.......:1h 55mn
Subtitles.........:NIL Language..........:ENGLISH
Resolution...... 720 x 304 IMDb URL..........:http://www.imdb.com/title/tt1325004/


DETAILS:

Video
Format : .avi
Format profile : Streaming Video@L1
Format settings, BVOP : Yes
Format settings, QPel : No
Format settings, GMC : No warppoints
Format settings, Matrix : Default
Muxing mode : Packed bitstream
Codec ID : XVID
Codec ID/Hint : XviD
Duration : 1h 55mn
Bit rate : 1 599 Kbps
Width : 720 pixels
Height : 304 pixels
Display aspect ratio : 2.35
Frame rate : 25.000 fps
Resolution : 24 bits
Colorimetry : 4:2:0
Scan type : Progressive
Bits/(Pixel*Frame) : 0.292
Stream size : 1.36GiB (92%)
Writing library : XviD 50

Audio
Format : MPEG Audio
Format version : Version 1
Format profile : Layer 3
Codec ID : 55
Codec ID/Hint : MP3
Duration : 1h 55mn
Bit rate mode : Constant
Bit rate : 128 Kbps
Channel(s) : 2 channels
Sampling rate : 44.1 KHz
Resolution : 16 bits
Stream size : 105 MiB (7%)
Alignment : Split accross interleaves
Interleave, duration : 40 ms (1.00 video frame)
Interleave, preload duration : 500 ms


Quote
Like
Share